PDA RSS
Вы не зарегистрированы Регистрация | Поиск | Войти

Студийный звук

Задать новую тему

СПИСОК РАЗДЕЛОВ

Поиск музыкантов

Куплю-продам
Услуги
Полезная информация
Общение
Барабанщикам
Гитаристам
Звук и звучание
Задай вопрос
Регионы
SHAMRAY GUITARS
Форумы друзей
MUSICFORUMS.RU
Наши друзья

Уважаемые пользователи форума, размещайте, пожалуйста, Ваши сообщения в соответствии с темой форума. Объявления типа куплю-продам, поиск музыкантов будут безжалостно стираться, при повторном появлении подобных объявлений нарушитель будет отключен от форума. Уважайте друг друга и давайте звучать хорошо. Модератор.

Все страницы:

1 2 3 Посмотреть всю тему
Автор
Тема: Re: Требования к плюсовой фонограмме
Время: 06.06.2012 00:47 
Moscow


>подкастингов.

-- И там идёт несжатый звук в 44\16 и видео хотя бы в стандартном DV?
Что-то мужики сумлеваются...
Автор
Тема: Re: Требования к плюсовой фонограмме
Время: 06.06.2012 00:50 
Москва
гитара, протулз

>>подкастингов.
>-- И там идёт несжатый звук в 44\16 и видео хотя бы в стандартном DV?
>Что-то мужики сумлеваются...

Видео 720 по вертикали - очень хорошее, намного качественней эфирного, звук, конечно, сжатый, но типа мп3 - совершенно нормальный, не требующий никакой обрезки.
Автор
Тема: Re: Требования к плюсовой фонограмме
Время: 06.06.2012 00:51 
Москва
гитара, протулз

Щас поищу Вечерний Ургант с Земфирой - эта трансляция получила премию за лучший живой звук на недавнем конкурсе.
Автор
Тема: Re: Требования к плюсовой фонограмме
Время: 06.06.2012 00:52 
Moscow


-- МР3 уже само по себе обрезано, как минимум - сверху.
Автор
Тема: Re: Требования к плюсовой фонограмме
Время: 06.06.2012 00:53 
Moscow


-- Не надо искать.
Лучше б битрейт потока озвучить...
Автор
Тема: Re: Требования к плюсовой фонограмме
Время: 06.06.2012 00:55 
Львов


Вот об этом и писал: HDTV 1280х720 против старого PAL 720х576
Автор
Тема: Re: Требования к плюсовой фонограмме
Время: 06.06.2012 00:56 
Москва
гитара, протулз

Вот, с 20-й минуты

http://urgantshow.ru/video/45885
Автор
Тема: Re: Требования к плюсовой фонограмме
Время: 06.06.2012 00:58 
Львов


Поток: 15-25 Мбит/с для MPEG-2 или 8-12 Мбит/с для MPEG-4
Автор
Тема: Re: Требования к плюсовой фонограмме
Время: 06.06.2012 00:59 
Москва
гитара, протулз

> Вот, с 20-й минуты

Почему-то 16:9 не получается по этой ссылке, но если зайти как положено, то на весь экран в HD разворачивается.
Автор
Тема: Re: Требования к плюсовой фонограмме
Время: 06.06.2012 01:08 
Moscow


Olgerd , меня интересует реалтаймовый поток вещания.
Дабы сравнить с имеющимися по стране верёвками.
Автор
Тема: Re: Требования к плюсовой фонограмме
Время: 06.06.2012 01:11 
Москва
гитара, протулз

>Olgerd , меня интересует реалтаймовый поток вещания.
>Дабы сравнить с имеющимися по стране верёвками.

У меня 12 мбит дома - тянет Дождь в HD без запинок. Там, кстати, тоже очень часто живые концерты наших групп по вечерам у Козырева.
Автор
Тема: Re: Требования к плюсовой фонограмме
Время: 06.06.2012 01:26 
Москва
гитара, протулз

Я погорячился с Земфирой - там моно и частотки немножко обрезанные.

Вот нашел пример стерео подкаста (Нойз МС на Дожде), но там пожатие еще сильнее.

http://tvrain.ru/teleshow/liven/noize_mc_live_vselennaya_beskonechna-232339/
Автор
Тема: Re: Требования к плюсовой фонограмме
Время: 06.06.2012 01:32 
Moscow


>У меня 12 мбит дома

-- Гм... Это даже для мск очень хороший поток.
Кто не из мск - поднимите руку, у кого столько! :)
Теперь о грустном. :)
По ссылке скачал небольшой кусочек.
Вот вся его подробнейшим образом изложенная натура:
Format : MPEG-4
Format profile : Base Media
Codec ID : isom
File size : 111 MiB
Duration : 24mn 19s
Overall bit rate : 639 Kbps
Writing application : Lavf53.4.0

Video ID : 1
Format : AVC
Format/Info : Advanced Video Codec
Format profile : High@L3.0
Format settings, CABAC : Yes
Format settings, ReFrames : 5 frames
Codec ID : avc1
Codec ID/Info : Advanced Video Coding
Duration : 24mn 19s
Bit rate mode : Variable
Bit rate : 600 Kbps
Width : 640 pixels
Height : 480 pixels
Display aspect ratio : 4:3
Frame rate mode : Constant
Frame rate : 25.000 fps
Resolution : 8 bits
Colorimetry : 4:2:0
Scan type : Progressive
Bits/(Pixel*Frame) : 0.078
Stream size : 104 MiB (94%)
Writing library : x264 core 115


Audio ID : 2
Format : AAC
Format/Info : Advanced Audio Codec
Format version : Version 4
Format profile : LC
Format settings, SBR : No
Format settings, PS : Yes
Codec ID : 40
Duration : 24mn 19s
Bit rate mode : Constant
Bit rate : 80.0 Kbps
Channel(s) : 2 channels
Channel positions : Front: L R
Sampling rate : 48.0 KHz
Resolution : 16 bits
Stream size : 13.9 MiB (13%)


Я не буквоед, но на HD - и даже на просто приличное - оно никак не тянет.

Кстати - у меня не 12, а маненько побольше :)
Но и ЭТО шло рывками.
Автор
Тема: Re: Требования к плюсовой фонограмме
Время: 06.06.2012 01:52 
Moscow


-- Виктор, ну нельзя же ТАК жестоко разыгрывать людей на ночь! :drazn:
Честно скачал ролик со второй ссылке. Даже попытался послушать.
Подавив приступ тошноты, попробовал узнать, ЧТО это было.
Вот, плз:

Format : Flash Video
File size : 43.8 MiB
Duration : 4mn 20s
Overall bit rate : 1 413 Kbps
Tagging application : Yet Another Metadata Injector for FLV - Version 1.8

Video Format : AVC
Format/Info : Advanced Video Codec
Format profile : High@L3.1
Format settings, CABAC : Yes
Format settings, ReFrames : 4 frames
Muxing mode : Container profile=Unknown@3.1
Duration : 4mn 20s
Bit rate : 1 246 Kbps
Width : 1 088 pixels
Height : 612 pixels
Display aspect ratio : 16:9
Frame rate mode : Variable
Frame rate : 25.000 fps
Resolution : 8 bits
Colorimetry : 4:2:0
Scan type : Progressive
Bits/(Pixel*Frame) : 0.075
Stream size : 39.6 MiB (90%)

Audio Format : AAC
Format/Info : Advanced Audio Codec
Format version : Version 4
Format profile : LC
Format settings, SBR : No
Duration : 4mn 20s
Bit rate : 126 Kbps
Channel(s) : 2 channels
Channel positions : L R
Sampling rate : 48.0 KHz
Resolution : 16 bits
Stream size : 4.12 MiB (9%)


Битрейт ВСЕГО потока - меньше, чем у CD!
Про звук (Bit rate : 126 Kbps) говорить не приходится вообще.
ЭТО - и есть КАЧЕСТВЕННОЕ вещание???..............
Автор
Тема: Re: Требования к плюсовой фонограмме
Время: 06.06.2012 01:53 
Львов


>>Кто не из мск - поднимите руку, у кого столько
50Мбит :)
Автор
Тема: Re: Требования к плюсовой фонограмме
Время: 06.06.2012 01:54 
Москва
гитара, протулз

> Но и ЭТО шло рывками.

Значит, не только в цифрах дело - у меня никогда подкасты с Первого не затыкаются.
Автор
Тема: Re: Требования к плюсовой фонограмме
Время: 06.06.2012 01:56 
г.Владимир


>Кто не из мск - поднимите руку, у кого столько!

Конкретно сейчас замерил:

входящий 75 мбит
исходящий 21 мбит

днем помедленней раза в три...

безлимит, оптика, 650 руб в месяц
едрёныть эт вам не итить.
Автор
Тема: Re: Требования к плюсовой фонограмме
Время: 06.06.2012 01:56 
Москва
гитара, протулз

> ЭТО - и есть КАЧЕСТВЕННОЕ вещание???

Похоже, я погорячился.
Автор
Тема: Re: Требования к плюсовой фонограмме
Время: 06.06.2012 02:00 
Москва
гитара, протулз

Вот телеканал "ПИК", вроде, в истинном HD:

http://www.youtube.com/watch?v=4WLpL6J8_Y8&list=ELq27AfIEAzWU&index=7&feature=plcp
Автор
Тема: Re: Требования к плюсовой фонограмме
Время: 06.06.2012 02:04 
Moscow


-- Дак многие ошибаются!
После прямо скажем, не очень хорошего эфирного ТВ приёма - сначала
кажется, что всё великолепно. Никаких помех, двойных контуров,
"снега" на картинке - ну, всё просто зашибись!
И только потом, постепенно, начинаешь замечать, что не всё
так хорошо, как сначала показалось по контрасту с антенной....
Автор
Тема: Re: Требования к плюсовой фонограмме
Время: 06.06.2012 02:07 
Москва
гитара, протулз

>После прямо скажем, не очень хорошего эфирного ТВ приёма - сначала
>кажется, что всё великолепно.

Ну, правда, отлично смотрится на большом ТВ. Контраст с эфирным и с НТВ-Плюс огромный.
Автор
Тема: Re: Требования к плюсовой фонограмме
Время: 06.06.2012 02:09 
Москва
гитара, протулз

Вот еще одно ТВ с отличной картинкой (правда, вражеское для нас, либерастов):

http://www.russia.ru/video/rep_13260/
Автор
Тема: Re: Требования к плюсовой фонограмме
Время: 06.06.2012 02:22 
Moscow


>вроде, в истинном HD:

Format : MPEG-4
Format profile : Base Media / Version 2
Codec ID : mp42
Overall bit rate : 1895.4 Kbps

Video ID : 1
Format : AVC
Format/Info : Advanced Video Codec
Format profile : High@L3.1
Format settings, CABAC : Yes
Format settings, ReFrames : 1 frame
Codec ID : avc1
Codec ID/Info : Advanced Video Coding
Bit rate mode : Variable
Bit rate : 1 609 Kbps
Maximum bit rate : 5 763 Kbps
Width : 1 280 pixels
Height : 720 pixels
Display aspect ratio : 16:9
Frame rate mode : Constant
Frame rate : 25.000 fps
Resolution : 8 bits
Colorimetry : 4:2:0
Scan type : Progressive
Bits/(Pixel*Frame) : 0.070

Audio ID : 2
Format : AAC
Format/Info : Advanced Audio Codec
Format version : Version 4
Format profile : LC
Format settings, SBR : No
Codec ID : 40
Bit rate mode : Variable
Bit rate : 137 Kbps
Maximum bit rate : 210 Kbps
Channel(s) : 2 channels
Channel positions : L R
Sampling rate : 44.1 KHz
Resolution : 16 bits


-- Получше, конечно, но всё равно дурят народ...
Автор
Тема: Re: Требования к плюсовой фонограмме
Время: 06.06.2012 05:24 
Москва
PT

>в 90 процентах случаев серео в залах превращают в моно - по крайней мере вменяемые звукорежиссеры точно - чтоб те кто возле сцены сидят слева не слушали один левый канал наприер

Спасибо!
Автор
Тема: Re: Требования к плюсовой фонограмме
Время: 06.06.2012 07:47 

Пачка всяких тяжёлых кирпичей.

>>Кто не из мск - поднимите руку, у кого столько!
>Конкретно сейчас замерил:
>входящий 75 мбит
>исходящий 21 мбит
>днем помедленней раза в три...
>безлимит, оптика, 650 руб в месяц
ХоЗе - Причём здесь жирнота Вашего канала? У меня, например - заявлено 100Мбит/с. Максимально реально раскачивало в пиринговых сетях - до 62Мбит/с. А это как никак - почти 8 Мбайт/с.
Разные серваки отдают с разной скоростью.
Вот, ради прикола померил.
http://www.russia.ru/video/sokol_11666/
Онлайн у меня поток - 1.7Мбайт Х 8 = 13.6Мбит.
Скачал файл с такой-же скоростью.
Вот, что слилось:
sokol_11666.mp4
General
Complete name : C:\sokol_11666.mp4
Format : MPEG-4
Format profile : Base Media
Codec ID : isom
File size : 77.4 MiB
Duration : 16mn 11s
Overall bit rate : 668 Kbps
Encoded date : UTC 1970-01-01 00:00:00
Tagged date : UTC 2011-02-28 06:29:21
Writing application : Lavf52.31.0
Video #1
ID : 1
Format : AVC
Format/Info : Advanced Video Codec
Format profile : Baseline@L3.0
Format settings, CABAC : No
Format settings, ReFrames : 1 frame
Muxing mode : Container profile=Baseline@2.1
Codec ID : avc1
Codec ID/Info : Advanced Video Coding
Duration : 16mn 11s
Bit rate mode : Variable
Bit rate : 504 Kbps
Width : 480 pixels
Height : 270 pixels
Display aspect ratio : 16:9
Frame rate mode : Constant
Frame rate : 25.000 fps
Resolution : 24 bits
Colorimetry : 4:2:0
Scan type : Progressive
Bits/(Pixel*Frame) : 0.156
Stream size : 58.4 MiB (75%)
Encoded date : UTC 1970-01-01 00:00:00
Tagged date : UTC 2011-02-28 06:29:21
Audio #2
ID : 2
Format : AAC
Format/Info : Advanced Audio Codec
Format version : Version 4
Format profile : LC
Format settings, SBR : No
Codec ID : 40
Duration : 16mn 11s
Bit rate mode : Variable
Bit rate : 160 Kbps
Channel(s) : 2 channels
Channel positions : L R
Sampling rate : 48.0 KHz
Resolution : 16 bits
Stream size : 18.5 MiB (24%)
Encoded date : UTC 1970-01-01 00:00:00
Tagged date : UTC 1970-01-01 00:00:00
Никогда не спорьте с идиотами. Вы опуститесь до их уровня, где они вас задавят своим опытом.
Автор
Тема: Re: Требования к плюсовой фонограмме
Время: 06.06.2012 11:19 
Saint-Petersburg
HD6 + UADquad

Парфенов-Позднер: вот от этой тошноты мы и отказались.
Автор
Тема: Re: Требования к плюсовой фонограмме
Время: 06.06.2012 11:50 
Moscow


-- И правильно сделали.
У мя в основном Дикаверики всякие тока и крутятся.
Автор
Тема: Re: Требования к плюсовой фонограмме
Время: 06.06.2012 11:50 
Москва
гитара, протулз

> Парфенов-Позднер: вот от этой тошноты мы и отказались.

Шикарная передача - смотрю с огромным удовольствием. Трезвый и свободный анализ реальных событий в политике и стране. (Кому Петр Толстой и Катя Андреева, а кому Парфенов и Познер :))

http://tvrain.ru/teleshow/parfenov_i_pozner/parfenov_i_pozner_ot_3_iyunya_polnaya_versiya_chast_1-279622/
Автор
Тема: Re: Требования к плюсовой фонограмме
Время: 06.06.2012 11:53 
Moscow


>Трезвый и свободный анализ реальных событий в ..... стране.

-- Даже не смешно.
Автор
Тема: Re: Требования к плюсовой фонограмме
Время: 06.06.2012 12:16 
Saint-Petersburg
HD6 + UADquad

Кто такой Петр Толстой не знаю, но звучит, как гибрид Царя с писателем. Катю смотрю иногда без звука: она мне внешне симпатична.
Автор
Тема: Re: Требования к плюсовой фонограмме
Время: 06.06.2012 12:26 
Москва
гитара, протулз

>Трезвый и свободный анализ реальных событий в ..... стране.
>-- Даже не смешно.

Подозреваю, что вы делаете выводы, не посмотрев ни одного выпуска. Я, вот в идиотизме, слабоумии и т.п. не замечен, и считаю это отличной передачей.
Автор
Тема: Re: Требования к плюсовой фонограмме
Время: 06.06.2012 12:32 
Moscow


-- Виктор, в ЭТОЙ сране
>Трезвый и свободный анализ реальных событий в ..... стране.
с показом по ТВ - НЕВОЗМОЖЕН в принципе.
Разрешён только откровенный бред - вчера какой-то "академик кислых щей"
чуть не ######### от натуги, доказывая что протесты в стране не от дерьма,
в ней творящегося - а, оказывается, только от влияния солнца!
Занавес............
Автор
Тема: Re: Требования к плюсовой фонограмме
Время: 06.06.2012 12:42 
Москва
гитара, протулз

> с показом по ТВ - НЕВОЗМОЖЕН в принципе.

Это противоречит факту - телеканал "Дождь" вещает без перерывов.
Автор
Тема: Re: Требования к плюсовой фонограмме
Время: 06.06.2012 13:11 
Saint-Petersburg
HD6 + UADquad

>> с показом по ТВ - НЕВОЗМОЖЕН в принципе.
>Это противоречит факту - телеканал "Дождь" вещает без перерывов.

По факту в эфире/воздухе у нас НЕТ такого телеканала
Автор
Тема: Re: Требования к плюсовой фонограмме
Время: 06.06.2012 13:13 
Москва
гитара, протулз

> По факту в эфире/воздухе у нас НЕТ такого телеканала

Заблуждайтесь, заблуждайтесь - рямо сейчас из космоса (НТВ-Плюс) через вас проходят его зомбирующие либерастические волны :)

Плюс в Москве кабельное очень развито - почти везде есть.
Автор
Тема: Re: Требования к плюсовой фонограмме
Время: 06.06.2012 13:18 
Saint-Petersburg
HD6 + UADquad

В Центре Петербурга практически нет кабельного ТВ (ровно как и интернет-сетей, кроме ADSL и 3/4G), а спутник на телевизор не поймаешь. Потому его НЕТ. Какойтсмысл говорить о том, чего нет?
Автор
Тема: Re: Требования к плюсовой фонограмме
Время: 06.06.2012 13:27 
г.Владимир


Вот уж кто настоящая мразь, так это Познер...
едрёныть эт вам не итить.
Автор
Тема: Re: Требования к плюсовой фонограмме
Время: 06.06.2012 13:28 
Москва
гитара, протулз

>Вот уж кто настоящая мразь, так это Познер...

Я с ним не знаком, личные качества оценить не могу, - а как ведет передачу на Дожде очень нравится.
Автор
Тема: Re: Требования к плюсовой фонограмме
Время: 06.06.2012 13:31 
г.Владимир


>>Вот уж кто настоящая мразь, так это Познер...
>Я с ним не знаком, личные качества оценить не могу, - а как ведет передачу на Дожде очень нравится.

Да не вопрос. :)
едрёныть эт вам не итить.
Автор
Тема: Re: Требования к плюсовой фонограмме
Время: 06.06.2012 13:31 
Москва
гитара, протулз

> Разрешён только откровенный бред - вчера какой-то "академик кислых щей"
чуть не ######### от натуги, доказывая что протесты в стране не от дерьма,
в ней творящегося - а, оказывается, только от влияния солнца!

Вот оно что! Надо мне поменьше на велосипеде по солнышку тогда кататься. А то прям невозможно работать - в график студии вставляю постоянно "митинг".
В этот форум могут писать только зарегистрированные пользователи!